#TITLE:Overload;
#SUBTITLE:- zebdal -;
#ARTIST:J._D._K;
#TITLETRANSLIT:;
#SUBTITLETRANSLIT:;
#ARTISTTRANSLIT:;
#CREDIT:;
#BANNER:overload.png;
#BACKGROUND:overload-bg.png;
#LYRICSPATH:;
#CDTITLE:cdtitle.png;
#MUSIC:overload.mp3;
#OFFSET:0.000;
#SAMPLESTART:47.138;
#SAMPLELENGTH:12.000;
#SELECTABLE:YES;
#BPMS:0.000=170.000;
#STOPS:0.000=0.040
;
#BGCHANGES:;
// cache tags:
#FIRSTBEAT:0.000;
#LASTBEAT:271.750;
#SONGFILENAME:Songs/New Folder/OVERLOAD/overload.sm;
#HASMUSIC:1;
#HASBANNER:1;
#MUSICLENGTH:96.037;
// end cache tags

//---------------dance-single - ----------------
#NOTES:
     dance-single:
     :
     Challenge:
     12:
     1.000,1.000,1.000,0.000,1.000,855.000,100.000,0.000,0.000,0.000:
0001
0010
0100
1000
0001
0000
0010
0000
0100
0001
1000
0010
0100
0000
0001
0000
,
1000
0100
0010
0001
0010
0000
1000
0000
0010
0001
0010
0100
1000
0000
0100
0000
,
0010
0001
0010
0100
0010
0000
1000
0000
0010
0100
0001
0100
0010
0000
0001
0000
,
1000
0100
0010
0100
0010
0000
1000
0000
0010
0100
0010
0001
0010
0000
1000
0000
,
0010
0001
0010
0100
1000
0000
0010
0000
1000
0010
0100
0010
0100
0000
0001
0000
,
1000
0010
0100
0010
0001
0000
0100
0000
0001
0010
0100
1000
0100
0000
0001
0000
,
0100
0010
0001
0010
0100
0000
1000
0000
0100
1000
0001
0100
0010
0000
0001
0000
,
0100
0001
0000
0010
0000
0001
0000
1000
0001
0010
0100
0000
0001
1000
0000
0001
,
0010
1000
0100
0010
0100
1000
0001
0100
0001
0100
0001
0010
1000
0100
0010
1000
,
0001
0010
0100
1000
0001
0010
0100
1000
0100
0001
0010
0100
0010
1000
0100
0010
,
0001
1000
0100
0010
0001
0100
0010
0100
1000
0001
0100
0010
0001
1000
0100
0010
,
0001
0100
0010
0001
0010
0100
1000
0001
0010
0100
1000
0100
1000
0010
0001
0100
,
1000
0010
0001
0100
1000
0010
0001
0100
1000
0010
0001
0100
1000
0010
0001
1000
,
0100
0001
0010
1000
0100
0001
0010
0001
0010
0100
0001
0010
0100
0001
0010
1000
,
0001
0100
0010
0001
0100
0010
1000
0100
0010
0100
0010
0001
0100
0010
0100
1000
,
0010
0001
0010
0100
0010
1000
0001
0010
1000
0100
0010
0001
0100
0010
0100
1000
,
0011
0100
0011
0010
1010
0100
0011
1000
,
0101
0010
1001
1000
0110
0001
1001
1000
,
0101
0001
0110
0001
1001
0010
0101
1000
,
0110
0001
1010
0001
0110
1000
0101
0100
,
1010
1000
0110
1000
1010
0100
0011
1000
,
1100
1000
0110
1000
0101
0001
1001
0100
,
1010
0001
0110
0010
1001
0100
1010
0001
,
0110
1000
0001
1000
0001
1000
0000
0010
0100
0010
0100
0000
0010
0000
0100
0010
,
1000
0000
0001
0010
0000
1000
0100
0010
0000
1000
0010
0000
0100
0000
0100
0000
,
0010
0000
0001
0100
0000
0010
1000
0100
0000
0010
0100
0000
1000
0000
1000
0000
,
0100
0000
1000
0100
0000
0010
0001
1000
0000
0010
0001
0000
0100
0000
0100
0000
,
1000
0000
0001
0100
0000
0001
0010
1000
0000
0100
0010
0000
0001
0000
0001
0000
,
0010
0000
1000
0001
0000
0100
0010
1000
0000
0100
0010
0000
0001
0000
0001
0000
,
0100
0000
0010
0001
0000
1000
0100
0010
0000
1000
0001
0000
0100
0000
0100
0000
,
0010
0000
0001
1000
0000
0010
0001
1000
0000
0001
0100
0000
0010
0000
0010
0000
,
1100
0010
0001
0010
0001
0010
0000
0100
1000
0100
1000
0000
0100
0000
1000
0100
,
0001
0010
1000
0001
1000
0001
0100
0001
0100
1000
0100
0010
0100
0001
0010
1000
,
0110
0001
0010
1000
0010
0001
0010
1000
0010
0001
0010
1000
0010
1000
0010
0001
,
1010
0100
0010
0100
1000
0100
0010
0001
1000
0100
0010
0001
1000
0100
0010
0100
,
0011
0100
0010
0100
1000
0100
0010
0001
1000
0100
0010
0001
1000
0100
0010
0001
,
0110
0001
0010
0100
1000
0100
0010
0001
0010
0100
0010
0100
1000
0100
0010
0001
,
1010
0100
0010
0001
0010
0100
1000
0100
0010
0001
0100
0010
1000
0100
0001
0010
,
1001
0100
0010
0100
0001
0010
1000
0100
0001
0010
0001
0100
1000
0100
0010
0001
,
1010
0110
0011
0110
,
0101
1000
0100
0010
0001
0100
0001
1000
0100
0001
0010
0100
0001
0100
0010
1000
,
0110
0001
0100
0010
1000
0100
0001
0010
0001
1000
0100
0010
0100
0001
1000
0100
,
0011
1000
0010
0100
1000
0010
1000
0001
0100
0010
1000
0010
1000
0010
0100
0001
,
1100
0010
0100
0001
0010
0100
0010
0001
1000
0001
0010
0100
0001
0010
0100
1000
,
0011
1000
0100
0001
0010
0100
1000
0010
0001
1000
0001
0010
1000
0100
0010
0001
,
0110
0001
1000
0010
1000
0100
0001
0100
1000
0010
0001
1000
0100
0001
0100
0010
,
0101
1000
0001
0010
1000
0010
0001
0100
0010
0100
1000
0100
1000
0001
0010
0100
,
1010
0001
1000
0010
1000
0001
0100
0001
1000
0010
0001
1000
0100
0001
0010
1000
,
0110
0001
1000
0001
0010
1000
0100
0001
0010
1000
0010
0001
0100
0001
1000
0010
,
1100
0001
0010
0100
0010
0001
1000
0001
0100
1000
0100
0001
0100
0001
0100
1000
,
0011
0100
0001
1000
0010
0001
0010
0100
0001
0010
1000
0001
0010
0001
1000
0100
,
1001
0100
0001
1000
0100
0001
0010
0100
0010
0001
0100
1000
0001
1000
0100
0001
,
1100
0010
1000
0001
0100
1000
0100
0010
0001
1000
0100
1000
0100
1000
0001
0010
,
0101
1000
0001
0010
1000
0001
1000
0010
0100
0010
1000
0001
0010
1000
0001
0100
,
1010
0100
0001
0010
1000
0001
0100
1000
0010
0100
0010
1000
0100
0001
1000
0010
,
1001
0010
0100
1000
0100
0001
0010
0001
0100
1000
0010
0100
0001
0010
0001
0100
,
1010
0000
0001
0000
1000
0000
0110
0000
0000
1100
0000
0000
0011
0000
0000
0000
,
1100
0000
0010
0000
0001
0000
0110
0000
0000
0110
0000
0000
1001
0000
0000
0000
,
1100
0000
0010
0000
0001
0000
0110
0000
0000
0101
0000
0000
1010
0000
0000
0000
,
0110
0000
1000
0000
0010
0000
0101
0000
0000
1001
0000
0000
1010
0000
0000
0000
,
0101
0000
1000
0000
0010
0000
1001
0000
0000
0110
0000
0000
0101
0000
0000
0000
,
1100
0000
0010
0000
1000
0000
0110
0000
0000
0101
0000
0000
1100
0000
0000
0000
,
0110
0000
0001
0000
1000
0000
0101
0000
0000
0011
0000
0000
1100
0000
0000
0000
,
1001
0000
0100
0000
0010
0000
1001
0000
0000
0011
0000
0000
1001
0000
0000
0000
,
1001
0100
0010
0001
0110
1000
0100
0010
0101
0010
0100
1000
0011
0100
0010
0100
,
1001
0100
0010
0001
1100
0010
0100
1000
0011
0100
0010
0100
1010
0001
0010
0100
,
1001
0100
0001
0100
1010
0100
0010
0001
1100
0010
0100
0010
1100
0010
0100
0001
,
1000
0100
0010
0001
0000
0100
0000
0001
0000
1000
0100
0000
0001
0010
0100
1000
;
